Jeff Dunham Relative Disaster (2017) 1080p DD5.1 - 2.0 x264 Phun ...

  • Category Movies
  • Type HD
  • Language English
  • Total size 782.3 MB
  • Uploaded By PhunPsyz
  • Downloads 347
  • Last checked 1 month ago
  • Date uploaded 1 month ago
  • Seeders 35
  • Leechers 8

Jeff Dunham: Relative Disaster

Ventriloquist Jeff Dunham brings his rude, crude and slightly demented posse of puppets to Ireland for a gleeful skewering of family and politics.

Infohash : F79C140881CDEB17CDDFB31B97C0D0607B0E67C3

x265 Size, x264 Compatibility, HD Quality

www.imdb.com/title/tt7364706/

Ventriloquist Jeff Dunham brings his rude, crude and slightly demented posse of puppets to Ireland for a gleeful skewering of family and politics.

Source: monkee (1.9 GiB)

Lots of subtitles - see list below











Format : MPEG-4
Format profile : Base Media / Version 2
Codec ID : mp42 (isom/iso2/avc1/mp41)
File size : 782 MiB
Duration : 1 h 10 min
Overall bit rate mode : Variable
Overall bit rate : 1 551 kb/s
Writing application : HandBrake 1.0.7 2017040900

Video
ID : 1
Format : AVC
Format/Info : Advanced Video Codec
Format profile : [email protected]
Format settings, CABAC : Yes
Format settings, ReFrames : 8 frames
Codec ID : avc1
Codec ID/Info : Advanced Video Coding
Duration : 1 h 10 min
Bit rate : 1 057 kb/s
Width : 1 920 pixels
Height : 1 080 pixels
Display aspect ratio : 16:9
Frame rate mode : Variable
Frame rate : 23.976 (24000/1001) FPS
Minimum frame rate : 23.974 FPS
Maximum frame rate : 23.981 FPS
Color space : YUV
Chroma subsampling : 4:2:0
Bit depth : 8 bits
Scan type : Progressive
Bits/(Pixel*Frame) : 0.021
Stream size : 533 MiB (68%)
Writing library : x264 core 148 r2708 86b7198
Color range : Limited
Color primaries : BT.709
Transfer characteristics : BT.709
Matrix coefficients : BT.709

Audio #1
ID : 2
Format : AAC
Format/Info : Advanced Audio Codec
Format profile : LC
Codec ID : 40
Duration : 1 h 10 min
Bit rate mode : Variable
Bit rate : 320 kb/s
Channel(s) : 2 channels
Channel(s)_Original : 6 channels
Channel positions : Front: L C R, Side: L R, LFE
Sampling rate : 48.0 kHz
Frame rate : 46.875 FPS (1024 spf)
Compression mode : Lossy
Stream size : 161 MiB (21%)
Title : Surround / Surround
Language : English
Default : Yes
Alternate group : 1

Audio #2
ID : 3
Format : AAC
Format/Info : Advanced Audio Codec
Format profile : LC
Codec ID : 40
Duration : 1 h 10 min
Bit rate mode : Variable
Bit rate : 160 kb/s
Channel(s) : 2 channels
Channel positions : Front: L R
Sampling rate : 48.0 kHz
Frame rate : 46.875 FPS (1024 spf)
Compression mode : Lossy
Stream size : 80.8 MiB (10%)
Title : Stereo / Stereo
Language : English
Default : No
Alternate group : 1

Text #1
ID : 4
Format : Timed Text
Muxing mode : sbtl
Codec ID : tx3g
Duration : 1 h 10 min
Bit rate mode : Variable
Bit rate : 102 b/s
Stream size : 52.4 KiB (0%)
Language : English
Default : Yes
Forced : No
Alternate group : 3

Text #2
ID : 5
Format : Timed Text
Muxing mode : sbtl
Codec ID : tx3g
Duration : 1 h 10 min
Bit rate mode : Variable
Bit rate : 129 b/s
Stream size : 66.6 KiB (0%)
Language : Arabic
Default : No
Forced : No
Alternate group : 3
Encoded date : UTC 2017-09-13 00:37:12
Tagged date : UTC 2017-09-13 00:37:12

Text #3
ID : 6
Format : Timed Text
Muxing mode : sbtl
Codec ID : tx3g
Duration : 1 h 10 min
Bit rate mode : Variable
Bit rate : 77 b/s
Stream size : 39.6 KiB (0%)
Language : Danish
Default : No
Forced : No
Alternate group : 3
Encoded date : UTC 2017-09-13 00:37:12
Tagged date : UTC 2017-09-13 00:37:12

Text #4
ID : 7
Format : Timed Text
Muxing mode : sbtl
Codec ID : tx3g
Duration : 1 h 10 min
Bit rate mode : Variable
Bit rate : 83 b/s
Stream size : 42.9 KiB (0%)
Language : German
Default : No
Forced : No
Alternate group : 3
Encoded date : UTC 2017-09-13 00:37:12
Tagged date : UTC 2017-09-13 00:37:12

Text #5
ID : 8
Format : Timed Text
Muxing mode : sbtl
Codec ID : tx3g
Duration : 1 h 10 min
Bit rate mode : Variable
Bit rate : 121 b/s
Stream size : 62.5 KiB (0%)
Language : Greek
Default : No
Forced : No
Alternate group : 3
Encoded date : UTC 2017-09-13 00:37:12
Tagged date : UTC 2017-09-13 00:37:12

Text #6
ID : 9
Format : Timed Text
Muxing mode : sbtl
Codec ID : tx3g
Duration : 1 h 10 min
Bit rate mode : Variable
Bit rate : 91 b/s
Stream size : 47.1 KiB (0%)
Language : Spanish
Default : No
Forced : No
Alternate group : 3
Encoded date : UTC 2017-09-13 00:37:12
Tagged date : UTC 2017-09-13 00:37:12

Text #7
ID : 10
Format : Timed Text
Muxing mode : sbtl
Codec ID : tx3g
Duration : 1 h 10 min
Bit rate mode : Variable
Bit rate : 76 b/s
Stream size : 39.1 KiB (0%)
Language : Spanish
Default : No
Forced : No
Alternate group : 3
Encoded date : UTC 2017-09-13 00:37:12
Tagged date : UTC 2017-09-13 00:37:12

Text #8
ID : 11
Format : Timed Text
Muxing mode : sbtl
Codec ID : tx3g
Duration : 1 h 10 min
Bit rate mode : Variable
Bit rate : 79 b/s
Stream size : 40.6 KiB (0%)
Language : Finnish
Default : No
Forced : No
Alternate group : 3
Encoded date : UTC 2017-09-13 00:37:12
Tagged date : UTC 2017-09-13 00:37:12

Text #9
ID : 12
Format : Timed Text
Muxing mode : sbtl
Codec ID : tx3g
Duration : 1 h 10 min
Bit rate mode : Variable
Bit rate : 83 b/s
Stream size : 42.9 KiB (0%)
Language : French
Default : No
Forced : No
Alternate group : 3
Encoded date : UTC 2017-09-13 00:37:12
Tagged date : UTC 2017-09-13 00:37:12

Text #10
ID : 13
Format : Timed Text
Muxing mode : sbtl
Codec ID : tx3g
Duration : 1 h 10 min
Bit rate mode : Variable
Bit rate : 126 b/s
Stream size : 65.1 KiB (0%)
Language : Hebrew
Default : No
Forced : No
Alternate group : 3
Encoded date : UTC 2017-09-13 00:37:12
Tagged date : UTC 2017-09-13 00:37:12

Text #11
ID : 14
Format : Timed Text
Muxing mode : sbtl
Codec ID : tx3g
Duration : 1 h 10 min
Bit rate mode : Variable
Bit rate : 82 b/s
Stream size : 42.5 KiB (0%)
Language : Italian
Default : No
Forced : No
Alternate group : 3
Encoded date : UTC 2017-09-13 00:37:12
Tagged date : UTC 2017-09-13 00:37:12

Text #12
ID : 15
Format : Timed Text
Muxing mode : sbtl
Codec ID : tx3g
Duration : 1 h 10 min
Bit rate mode : Variable
Bit rate : 73 b/s
Stream size : 37.7 KiB (0%)
Language : Japanese
Default : No
Forced : No
Alternate group : 3
Encoded date : UTC 2017-09-13 00:37:12
Tagged date : UTC 2017-09-13 00:37:12

Text #13
ID : 16
Format : Timed Text
Muxing mode : sbtl
Codec ID : tx3g
Duration : 1 h 6 min
Bit rate mode : Variable
Bit rate : 98 b/s
Stream size : 47.6 KiB (0%)
Language : Korean
Default : No
Forced : No
Alternate group : 3
Encoded date : UTC 2017-09-13 00:37:12
Tagged date : UTC 2017-09-13 00:37:12

Text #14
ID : 17
Format : Timed Text
Muxing mode : sbtl
Codec ID : tx3g
Duration : 1 h 10 min
Bit rate mode : Variable
Bit rate : 78 b/s
Stream size : 39.9 KiB (0%)
Language : Norwegian Bokmal
Default : No
Forced : No
Alternate group : 3
Encoded date : UTC 2017-09-13 00:37:12
Tagged date : UTC 2017-09-13 00:37:12

Text #15
ID : 18
Format : Timed Text
Muxing mode : sbtl
Codec ID : tx3g
Duration : 1 h 10 min
Bit rate mode : Variable
Bit rate : 80 b/s
Stream size : 41.5 KiB (0%)
Language : Dutch
Default : No
Forced : No
Alternate group : 3
Encoded date : UTC 2017-09-13 00:37:12
Tagged date : UTC 2017-09-13 00:37:12

Text #16
ID : 19
Format : Timed Text
Muxing mode : sbtl
Codec ID : tx3g
Duration : 1 h 10 min
Bit rate mode : Variable
Bit rate : 78 b/s
Stream size : 40.1 KiB (0%)
Language : Polish
Default : No
Forced : No
Alternate group : 3
Encoded date : UTC 2017-09-13 00:37:12
Tagged date : UTC 2017-09-13 00:37:12

Text #17
ID : 20
Format : Timed Text
Muxing mode : sbtl
Codec ID : tx3g
Duration : 1 h 10 min
Bit rate mode : Variable
Bit rate : 87 b/s
Stream size : 44.6 KiB (0%)
Language : Portuguese
Default : No
Forced : No
Alternate group : 3
Encoded date : UTC 2017-09-13 00:37:12
Tagged date : UTC 2017-09-13 00:37:12

Text #18
ID : 21
Format : Timed Text
Muxing mode : sbtl
Codec ID : tx3g
Duration : 1 h 10 min
Bit rate mode : Variable
Bit rate : 83 b/s
Stream size : 42.8 KiB (0%)
Language : Portuguese
Default : No
Forced : No
Alternate group : 3
Encoded date : UTC 2017-09-13 00:37:12
Tagged date : UTC 2017-09-13 00:37:12

Text #19
ID : 22
Format : Timed Text
Muxing mode : sbtl
Codec ID : tx3g
Duration : 1 h 10 min
Bit rate mode : Variable
Bit rate : 88 b/s
Stream size : 45.4 KiB (0%)
Language : Romanian
Default : No
Forced : No
Alternate group : 3
Encoded date : UTC 2017-09-13 00:37:12
Tagged date : UTC 2017-09-13 00:37:12

Text #20
ID : 23
Format : Timed Text
Muxing mode : sbtl
Codec ID : tx3g
Duration : 1 h 10 min
Bit rate mode : Variable
Bit rate : 80 b/s
Stream size : 41.5 KiB (0%)
Language : Swedish
Default : No
Forced : No
Alternate group : 3
Encoded date : UTC 2017-09-13 00:37:12
Tagged date : UTC 2017-09-13 00:37:12

Text #21
ID : 24
Format : Timed Text
Muxing mode : sbtl
Codec ID : tx3g
Duration : 1 h 10 min
Bit rate mode : Variable
Bit rate : 202 b/s
Stream size : 105 KiB (0%)
Language : Thai
Default : No
Forced : No
Alternate group : 3
Encoded date : UTC 2017-09-13 00:37:12
Tagged date : UTC 2017-09-13 00:37:12

Text #22
ID : 25
Format : Timed Text
Muxing mode : sbtl
Codec ID : tx3g
Duration : 1 h 10 min
Bit rate mode : Variable
Bit rate : 89 b/s
Stream size : 45.8 KiB (0%)
Language : Turkish
Default : No
Forced : No
Alternate group : 3
Encoded date : UTC 2017-09-13 00:37:12
Tagged date : UTC 2017-09-13 00:37:12

Text #23
ID : 26
Format : Timed Text
Muxing mode : sbtl
Codec ID : tx3g
Duration : 1 h 10 min
Bit rate mode : Variable
Bit rate : 76 b/s
Stream size : 38.9 KiB (0%)
Language : Chinese
Default : No
Forced : No
Alternate group : 3
Encoded date : UTC 2017-09-13 00:37:12
Tagged date : UTC 2017-09-13 00:37:12

Text #24
ID : 27
Format : Timed Text
Muxing mode : sbtl
Codec ID : tx3g
Duration : 1 h 10 min
Bit rate mode : Variable
Bit rate : 78 b/s
Stream size : 39.9 KiB (0%)
Language : Chinese
Default : No
Forced : No
Alternate group : 3
Encoded date : UTC 2017-09-13 00:37:12
Tagged date : UTC 2017-09-13 00:37:12

Files:

  • Jeff Dunham Relative Disaster (2017) 1080p DD5.1 - 2.0 x264 Phun Psyz.mp4 (782.3 MB)

There are currently no comments. Feel free to leave one :)

Code:

  • udp://tracker.coppersurfer.tk:6969/announce
  • udp://tracker.pirateparty.gr:6969/announce
  • udp://shadowshq.yi.org:6969/announce
  • udp://tracker.tiny-vps.com:6969/announce
  • udp://inferno.demonoid.pw:3397/announce
  • udp://tracker.opentrackr.org:1337/announce
  • http://mgtracker.org:6969/announce
  • udp://tracker.leechers-paradise.org:6969/announce
  • udp://eddie4.nl:6969/announce
  • udp://tracker.piratepublic.com:1337/announce
  • udp://tracker.grepler.com:6969/announce
  • http://explodie.org:6969/announce